#TITLE:Comic Party Revolution;
#SUBTITLE:;
#ARTIST:Unknown artist;
#TITLETRANSLIT:;
#SUBTITLETRANSLIT:;
#ARTISTTRANSLIT:;
#CREDIT:;
#BANNER:ComicPartyRevolution.PNG;
#BACKGROUND:ComicPartyRevolution-bg.PNG;
#LYRICSPATH:;
#CDTITLE:;
#MUSIC:Comic Party Revolution.mp3;
#OFFSET:0.000;
#SAMPLESTART:83.702;
#SAMPLELENGTH:12.000;
#SELECTABLE:YES;
#BPMS:0.000=70.000,32.500=72.000,64.500=73.000,106.000=74.000;
#STOPS:;
#BGCHANGES:0.000=CPR Video.avi=1.000=0=0=1,
99999=-nosongbg-=1.000=0=0=0 // don't automatically add -songbackground-
;
// cache tags:
#FIRSTBEAT:0.500;
#LASTBEAT:117.000;
#SONGFILENAME:Songs/music/Comic Party Revolution/Comic Party Revolution.sm;
#HASMUSIC:1;
#HASBANNER:1;
#MUSICLENGTH:97.802;
// end cache tags

//---------------dance-single - ----------------
#NOTES:
     dance-single:
     :
     Medium:
     6:
     0.327,0.299,0.153,0.194,0.414,190.000,15.000,19.000,0.000,0.000:
0000
1000
1000
2001
0001
0001
3001
1001
,
1001
0020
0000
0000
0230
0000
0000
0000
,
0300
0020
0000
0000
0000
0030
0000
1001
,
1001
0000
1000
0000
0001
1000
0000
0001
0000
1000
0000
0001
1000
0100
0010
0001
,
0001
0000
0001
0010
0100
1000
0100
0010
0001
0010
0100
1000
,
0000
0000
1000
0000
0100
0000
0010
0000
0001
0000
0010
0000
0100
0000
0000
1000
0000
0000
0200
0000
0000
0000
0000
0000
,
0000
0300
1000
1000
0100
0100
0010
0010
,
0001
0001
0010
0010
2000
0000
3002
0000
,
0000
0003
0000
1000
0000
0100
0000
0010
0000
0001
0000
0010
0000
0100
0000
1000
,
0000
0100
0000
0010
0000
0001
0000
0010
0000
0100
0000
2000
0000
0000
0000
0000
,
3000
0000
0000
0000
0000
0000
1000
0000
0000
0001
0000
0000
0001
0000
1000
0000
0000
0000
0000
0000
0000
1000
0000
0000
0000
0000
0000
1000
0000
0000
0000
0000
0000
0100
0000
0000
0000
0000
0000
0100
0000
0000
0000
0000
0000
0001
0000
0000
,
0000
0001
0000
0010
0000
0010
0000
0000
2000
0000
0000
3000
0020
0000
0000
0000
,
0031
0001
0010
0100
1000
0100
0010
0002
0000
0000
0003
0000
,
1000
0000
0100
0000
0010
0000
0000
1000
0100
0010
0000
0000
0000
0000
1000
0100
0010
0000
0000
0000
0000
0000
0000
0000
,
0001
0001
1000
1000
0100
0100
0010
0010
,
0001
0002
0000
0000
0000
0000
0000
0000
,
0003
1000
1000
1000
0100
0010
0001
0010
,
0100
0000
2000
0000
0000
0000
0000
0000
0000
0000
3000
0000
1000
0001
1000
0000
,
1001
1001
0000
1000
0000
1000
0000
0100
0000
0100
0000
0010
0000
0010
0000
0001
,
0000
0001
0000
0002
0000
0000
0000
0003
0000
0001
0010
0100
1000
0000
1000
1000
,
0000
1000
1000
1000
0100
0010
0001
0010
,
0100
0000
1000
0000
2000
0000
0000
0000
0000
0000
3000
0000
1000
0001
1000
0000
,
0000
1001
0000
1001
1001
0000
1000
0000
1000
0000
0100
0000
0100
0000
0010
0000
,
0010
0001
0001
0002
0000
0000
0000
0000
,
2000
0000
0000
0000
0000
0000
0000
0000
0000
0000
0000
0000
3003
0000
1000
0100
,
0010
0001
0010
0100
0000
1001
0000
1001
0000
1000
0000
0100
0000
0010
0000
0001
,
0000
0010
0000
0100
0000
1000
0000
0100
0000
0000
1000
0000
0100
0000
0010
0000
,
0001
0010
1001
1001
1000
0100
0010
2002
,
0000
0000
0000
0000
,
0000
3003
0000
0000
;
